Ajab Singh Ki Gajab Kahani 2018 1x264 72 Torrent Free Download

Seeders : 74   &   Leechers : 522      13-01-2019 (1 week)
Ajab Singh Ki Gajab Kahani 2018 1x264 72 Torrent Download
Added: ago by PENDUDESI ***** in Movies   642.5 MB   Hits : 13
Info Hash: 5C3DCE8FF95DA0818FE98A90EA6D1019781FCD0D Download
Ajab Singh Ki Gajab Kahani 2018 1x264 72 Torrent Download

Anonymous and Direct Download movies , software , shows...

Fast Safe Anonymous
movies, software, shows...
Ajab singh ki gajab kahani
Drama   .   115 min   5.9/10
Director : Rishi Prakash Mishra  
Writer: Rishi Prakash Mishra  
Tags: Ajab  Singh  Ki  Gajab  Kahani  2018  

Released:
21 Apr 2017
This is a Biopic of a handicapped Irs officer Ajay Singh who is presently deputed as Deputy commissioner of income tax at ranchi (Jharkhand). First time in Indian film history the same Irs officer replayed his own role as Ajab Singh in this Biopic based on real eve.... See More nts of his life. Azab Singh born in a poor Bpl farmer family. In an accident he lost his eyes and ears and became partially blind and deaf due to costly medical treatment which his parents did not afford. Azab Singh was genious and his father always encourage him to do best in life.

Torrent Description



http://www.gopisahi.pw/

Format : Matroska
Format version : Version 4 / Version 2
File size : 643 MiB
Duration : 1 h 52 min
Overall bit rate : 797 kb/s
Movie name : Ajab Singh Ki Gajab Kahani 2018 GOPISAHI

Video
Format : AVC
Codec ID : V_MPEG4/ISO/AVC
Duration : 1 h 52 min
Bit rate : 699 kb/s
Width : 1 280 pixels
Height : 528 pixels
Display aspect ratio : 2.40:1
Frame rate mode : Constant
Frame rate : 24.000 FPS
Color space : YUV
Chroma subsampling : 4:2:0
Bit depth : 8 bits
Scan type : Progressive
Bits/(Pixel*Frame) : 0.043
Stream size : 563 MiB (88%)
Title : GOPISAHI
Writing library : x264 core 157 r2935 545de2f

Audio
Format : AAC
Duration : 1 h 52 min
Bit rate : 96.0 kb/s
Channel(s) : 2 channels
Channel positions : Front: L R
Sampling rate : 48.0 kHz
Frame rate : 46.875 FPS (1024 SPF)
Compression mode : Lossy
Delay relative to video : -21 ms
Stream size : 77.4 MiB (12%)
Title : GOPISAHI
Language : Hindi

Text
Language : English





Sharing Widget


No Comments For This Torrent . Be The First to Comment

You must Login to Comment . Click Here to Login

Menu 1

Some content in menu 1.

Ajab Singh Ki Gajab Kahani 2018 1x264 720p Esub Amazon Hindi GOPISAHI (Size: 642.5 MB)
  Ajab Singh Ki Gajab Kahani 2018 1x264 720p Esub Amazon Hindi GOPISAHI 642.5 MB
tracker name
udp://tracker.leechers-paradise.org:6969/announce
udp://zer0day.ch:1337/announce
udp://open.demonii.com:1337/announce
udp://tracker.coppersurfer.tk:6969/announce
udp://exodus.desync.com:6969/announce
µTorrent compatible trackers list

Relative Torrents

Torrent Name Size Age SEED LEECH
Hoichoi Unlimited (2018) Bengali 720p Ne HDTVRip x264 AAC JM Team
Posted by    TeamTNT   in   Movies
1.2 GB 3 minutes 798 281
Detective Dee: The Four Heavenly Kings (018) [BluRay] [1080p] [YTS] [YIFY]
Posted by    YTSAGx   in   Movies
2.1 GB 12 minutes 558 287
Fraud Saiyyan (2019) Hindi PreDvDRip 700B CiNEVooD Exclusive
Posted by    xRls   in   Movies
736.5 MB 15 minutes 24 163
Charmed 2018 S01E10 720p HDTV x264 [394M] [MP4]
Posted by    TorrentCouch   in   TV
394.6 MB 15 minutes 619 776
Space Janitors Season 2 720p S02
Posted by    marxspawn   in   TV
648.7 MB 20 minutes 27 179
Katana Maidens Toji no Miko (25) | EngView Package Desi | First Man El Primer Hombre BluRayRip AC3 5.1